lipupedemontanatrevigiana.it
Andy Ellen - Different E.PAndy Ellen - Different E.P Wiley - Beats For SyncWiley - Beats For Sync The Misfits - Max's Kansas CityThe Misfits - Max's Kansas City Puppy Love Bomb - Too Busy ThinkingPuppy Love Bomb - Too Busy Thinking Mo - Kiss Of The SpiderwomanMo - Kiss Of The Spiderwoman Zebda - Le Bruit Et L'OdeurZebda - Le Bruit Et L'Odeur Kraftwerk - ComputerweltKraftwerk - Computerwelt Kris Allen - Thank You CamelliaKris Allen - Thank You Camellia
» » Kathy Troccoli - Stubborn Love
Kathy Troccoli - Stubborn Love Mp3 album

Kathy Troccoli - Stubborn Love Mp3 album

Performer:
Kathy Troccoli
Album:
Stubborn Love
Country:
Released:
1994
Label:
Reunion Records
Catalog:
701 0001 723
Genre:
Style:
Gospel, Vocal
MP3 archive size:
2303 mb
FLAC archive size:
1496 mb

Tracklist

1It's The Small Things
Written-By – Donna McLaughlin Wyant, Michael W. Smith
3:23
2You're All I Need To Get By
Written-By – Nickolas Ashford, Valerie Simpson
4:07
3Love Of My Life
Written-By – Tricia Walker
3:59
4Once In A Lifetime Love
Written-By – Gary Dunham, Michael W. Smith, Rosemary Dunham
4:47
5There's Still Time
Written-By – Deborah D. Smith, Michael W. Smith
3:44
6All I Must Do
Written-By – Brown Bannister, Michael Blanton
3:48
7Lord I Need You Now
Written-By – Billy Sprague, Jim Weber
4:04
8Hand In Hand
Written-By – Gary Chapman, Michael W. Smith
3:54
9Stubborn Love
Written-By – Amy Grant, Brown Bannister, Gary Chapman, Michael W. Smith, Sloan Towner
4:32
10It's Your Love
Written-By – Billy Sprague, Jim Weber
4:22

Versions

CategoryArtistTitle (Format)LabelCategoryCountryYear
RRA0001Kathy Troccoli Stubborn Love ‎(LP, Album, Mon)Reunion RecordsRRA0001US1982
701 0001 723Kathy Troccoli Stubborn Love ‎(CD, Album)Reunion Records701 0001 723US1994
WC-8248Kathy Troccoli Stubborn Love ‎(Cass, Album)A&M RecordsWC-8248US1982
RRA 0001Kathy Troccoli Stubborn Love ‎(LP, Album)Reunion RecordsRRA 0001UK1983
RRA0001Kathy Troccoli Stubborn Love ‎(LP, Album)Reunion RecordsRRA0001US1982
CategoryArtistTitle (Format)LabelCategoryCountryYear
RRA0001Kathy Troccoli Stubborn Love ‎(LP, Album, Mon)Reunion RecordsRRA0001US1982
WC-8248Kathy Troccoli Stubborn Love ‎(Cass, Album)A&M RecordsWC-8248US1982
RRA 0001Kathy Troccoli Stubborn Love ‎(LP, Album)Reunion RecordsRRA 0001UK1983
REND 81544Kathy Troccoli Stubborn Love ‎(CD, Album, Club, CRC)Reunion RecordsREND 81544US1994
RRA0001Kathy Troccoli Stubborn Love ‎(LP, Album)Reunion RecordsRRA0001US1982

Credits

  • ProducerBrown Bannister
  • ProducerBrown Bannister

Notes

(P)&(C) 1994 REUNION Records

originally released on cassette and LP, in 1982

Barcodes

  • Barcode (Printed): 0 20831-1256-2 90
  • Barcode (Scanned): 0208311256290
  • Barcode: 0 8068-81554-2 1

Companies

  • Phonographic Copyright (p) – Reunion Records
  • Copyright (c) – Reunion Records
  • Record Company – Columbia Record Club
  • Phonographic Copyright (p) – Reunion Records
  • Copyright (c) – Reunion Records

Video

  • foobar2000 1.3.17 / Dynamic Range Meter 1.1.1
    log date: 2019-01-06 14:56:20

    --------------------------------------------------------------------------------
    Analyzed: Kathy Troccoli / Stubborn Love [US 1994 CD]
    --------------------------------------------------------------------------------

    DR Peak RMS Duration Track
    --------------------------------------------------------------------------------
    DR11 -1.30 dB -18.10 dB 4:09 01-You're All I Need To Get By
    DR11 -0.33 dB -14.42 dB 3:57 02-Hand In Hand
    DR13 -0.56 dB -17.52 dB 3:49 03-All I Must Do
    DR11 0.00 dB -15.31 dB 4:33 04-Stubborn Love
    DR11 -3.19 dB -20.06 dB 4:06 05-Lord I Need You Now
    DR11 0.00 dB -13.88 dB 3:44 06-There's Still Time
    DR11 0.00 dB -15.69 dB 4:48 07-Once In A Lifetime Love
    DR12 -0.26 dB -15.88 dB 3:25 08-It's The Small Things
    DR11 -0.47 dB -15.75 dB 4:23 09-It's Your Love
    DR11 -2.11 dB -17.08 dB 4:00 10-Love Of My Life
    --------------------------------------------------------------------------------

    Number of tracks: 10
    Official DR value: DR11

    Samplerate: 44100 Hz
    Channels: 2
    Bits per sample: 16
    Bitrate: 787 kbps
    Codec: ALAC
    ================================================================================